Tonk ציבורי
[search 0]
עוד

Download the App!

show episodes
 
元ライター(今はお休み)の一華です。イチカではなくハジメ ハナです。Podcastでお気に入りの映画のキャラや内容を深掘りしたり考察したり(妄想も含)、その他あれこれ好き勝手に話しています。最新映画も旧作DVDも、名画もB級もポンコツも、何でもありの雑食です。
 
Hardcore Hooligan Honky Tonk Radio brought to ya'll from NWCZ radio.com aims to turn the Pacific Northwest music scene on its ear. Bringing real Outlaw Country and the bands that influenced Outlaw Country to the region. True fans pushing music to the masses. Get yer shitkickers on, its time to roll. Send submissions in hard files & contact Hardcore Hooligan Honky Tonk at: hardcorehooliganhonkytonk@gmail.com
 
Welcome to the Honky Tonk Papa Podcast, a journey into the life and legacy of Atlanta legend Whit Connah. Whit was a powerhouse singer and musician, who loved nothing better than making art in his studio and music with his friends. He’s touched lives from Atlanta to Appalachia, New Orleans to New York - and beyond. If you love roots music – old-time country, Cajun, and blues – AND you love a good story… hop on board and join us for the ride. Head on over to honkytonkpapa.com to subscribe and ...
 
Loading …
show series
 
The Dalton Boys - "Roll, Rattler, Roll" Salty and Mattie - "Long Time Gone" Wayne Kemp - "Babblin' Incoherently" Jim Nesbitt with guitarist Bill Moore - "(Go On And) Cry Me A River" Wayne Raney - "I'm In Love" Music behind DJ: The Casuals - "Money (That's All I Want)" Wesley Reynolds - "Trip To The Moon" Lillian Minor - "You Been A Long Time Gone" …
 
映画「CUBE」目が覚めたらそこは立方体の地獄。果たして生き残れるのか。ソリッドシチュエーションスリラーの金字塔! 監督:ヴィンチェンゾ・ナタリ 出演:デヴィッド・ヒューレット  モーリス・ディーン・ウィント  ニコール・デ・ボア他 -ストーリー- 目が覚めると、そこは立方体の部屋。隣もやはり立方体の部屋。間違った部屋へ進むと恐ろしいトラップが仕掛けられている。一体だれが、何のためにこんな場所を作ったのか、なぜ自分達がここに連れてこられたのか。 このブラウザでは再生できません。 再生できない場合、ダウンロードは🎵こちらעל ידי 一華(ハジメハナ)
 
Carl Smith - "Back Up Buddy" Thurl Ravenscroft - "Pompilio Papa" Music behind DJ: Reno & Smiley - "Lady Of Spain" Roy Orbison - "Workin' For The Man" Johnny Preston - "Feel So Fine" Paul Ott - "Kitty Kat" Webb Pierce - "It's Been So Long" Jim Reeves - "If The World Should End Tomorrow" Music behind DJ: Reno & Smiley - "Lady Of Spain" Gene Ross - "T…
 
PERFORMER "Tonka" TITLE "19:58" FILE "9-15-21 internetmix.mp3" MP3 TRACK 01 AUDIO TITLE "First Of All" PERFORMER "DME & Blacc Zacc" INDEX 01 00:00:00 TRACK 02 AUDIO TITLE "Menace" PERFORMER "Migos" INDEX 01 02:21:00 TRACK 03 AUDIO TITLE "Backseat Of The Rolls Truck" PERFORMER "BIG30" INDEX 01 03:44:00 TRACK 04 AUDIO TITLE "Small Town" PERFORMER "Du…
 
PERFORMER "Tonka " TITLE "19:39" FILE "9-14-21 uo.mp3" MP3 TRACK 01 AUDIO TITLE "Black Habits I" PERFORMER "D Smoke" INDEX 01 00:00:00 TRACK 02 AUDIO TITLE "Vampire" PERFORMER "2 Chainz" INDEX 01 02:26:00 TRACK 03 AUDIO TITLE "Mystery Lady" PERFORMER "Masego & Don Toliver" INDEX 01 03:43:00 TRACK 04 AUDIO TITLE "Da Baddest (Radio)" PERFORMER "Big K…
 
PERFORMER "Jay" TITLE "21:27" FILE "9-12-21 mix lo.mp3" MP3 TRACK 01 AUDIO TITLE "Praise God" PERFORMER "Kanye West" INDEX 01 00:00:00 TRACK 02 AUDIO TITLE "family ties" PERFORMER "Baby Keem & Kendrick Lamar" INDEX 01 02:04:00 TRACK 03 AUDIO TITLE "Having Our Way (feat Drake)" PERFORMER "Migos feat. Drake" INDEX 01 03:11:00 TRACK 04 AUDIO TITLE "No…
 
Playlist: The Davis Sisters- I Forgot More Than Youll Ever Know - Dim Lights Thick Smoke And Hillbilly Music 1953 Juice Newton- Love Sail Away - Quiet Lies Red Foley Hank Garland- Sugarfoot Rag - The Country Music Hall Of Fame Red Foley Merle Travis Joe Maphis- Corrine Corrina - Country Musics 2 Guitar Greats Merle Travis Joe Maphis Lucky Tubb The …
 
Hank Williams - "I'm So Lonesome I Could Cry" Hank Williams - "I'd Still Want You" Hank Williams - "Six More Miles (To The Graveyard)" Hank Williams - "I Can't Help It (If I'm Still in Love With You)" Hank WIlliams - "Cold, Cold Heart" Music behind DJ: The Mile-Tones - "Trial Of Love" Johnnie White - "Happy Birthday Cake Boogie" Faron Young - "Forg…
 
Music behind DJ: George Barnes - "Spooky" - single Bob Gallion - "I Want Her Blues" The Cousins - "Hey, Mae" Wayne Handy / Jim Thornton and His Band - "Say Yeah" Bob Hill and the Spring Valley Boys - "All That Glitters Isn't Gold" [N.E.C.M.I.?] Jack Howard and the Covered Ranch Gang - "Bull Doggin' The Steel" Music behind DJ: George Barnes - "Train…
 
PERFORMER "Tonka The DJ" TITLE "21:53" FILE "08-26-21 Crunk mix.mp3" MP3 TRACK 01 AUDIO TITLE "Massacre" PERFORMER "pimp c" INDEX 01 00:00:00 TRACK 02 AUDIO TITLE "SHOOT THE F**K Up" PERFORMER "MISTA TAYLOR" INDEX 01 02:05:00 TRACK 03 AUDIO TITLE "Bang Bang Bang Bang" PERFORMER "DC3" INDEX 01 03:02:00 TRACK 04 AUDIO TITLE "Stove On (Clean)" PERFORM…
 
Ray Charles - "Your Cheatin' Heart" Bobbie Gentry - "Mississippi Delta" Dolly Parton - "I Don't Want To Throw Rice" George Jones - "The King Is Gone (So Are You)" Johnny Western - "The Ballad Of Paladin" Bob Wills & His Texas Playboys - "That Hot Lick Fiddlin' Man" The Louvin Brothers - "The Great Atomic Power" Ernest Tubb - "I Ain't Goin' Honky To…
 
Music behind DJ: Jack Carter - "Old Mountain Dew" - single Johnny Cash - "Down The Street To 301" - single Glenn Canyon - "Drinkin' Suit" - single Tiny Cochart - "Alone Again" - single Don Carter - "Trying To Quit" - single Sleepy La Beff - "You're So Easy To Love" - single Crash Craddock - "Boom Boom Baby" - single Music behind DJ: Jack Carter - "…
 
Music behind DJ: Johnnie and Jack - "Yeah" - single Wiley Barkdull & Helen Carter - "I'd Like To" - single Jimmy Allen - "I'm Trading Loneliness" - single Donnie Bowser - "I Love You Baby" - single Donna Kaye - "Fools Romance" - single George Jones - "Say It's Not You" - single Ramsey Kearney - "Put Away That Gun Boy" - single Boyd Bennett - "Boogi…
 
映画「アイデンティティー」とあるモーテルに集う11人と刑執行再審理。騙される快感に酔うミスリード系叙述トリック! 監督:ジェームズ・マンゴールド 出演:ジョン・キューザック  アマンダ・ピート  レイ・リオッタ他 -ストーリー- 豪雨の夜に行われる死刑執行の再審理。時を同じくしてとある寂れたモーテルでは洪水で足止めされた11人が、一人また一人と襲われていく。 このブラウザでは再生できません。 再生できない場合、ダウンロードは🎵こちらעל ידי 一華(ハジメハナ)
 
PERFORMER "Tonka The Dj " TRACK 01 AUDIO TITLE "The Rain (Supa Dupa Fly)" PERFORMER "Missy Elliott" INDEX 01 00:00:00 TRACK 02 AUDIO TITLE "What's So Different?" PERFORMER "Ginuwine" INDEX 01 01:56:00 TRACK 03 AUDIO TITLE "Thank God I Found You (with Mariah Carey and Nas, Make It Last Remix Edit)" PERFORMER "Joe" INDEX 01 03:41:00 TRACK 04 AUDIO TI…
 
Music behind DJ: Jimmy Bryant with Speedy West - "Pushin' The Blues" - single Lonnie Irving - "I Got Blues On My Mind" - single Ferlin Husky - "Prize Possession" - single Jimmy Work - "Making Believe" - single Roy Acuff - "Once More" - single Bennie Hess - "Wild Hog Hop" - single Music behind DJ: Jimmy Bryant with Speedy West - "Pickin' Peppers" - …
 
TRACK 01 AUDIO TITLE "Defendant" PERFORMER "Plies TRACK 02 AUDIO TITLE "Trenches Reloaded (feat Peanut Da Don & T I)" PERFORMER "Hustle Gang feat. Peanut Da Don & T.I." TRACK 03 AUDIO TITLE "Riata Dada" PERFORMER "EST Gee" TRACK 04 AUDIO TITLE "FWM" PERFORMER "Rara" TRACK 05 AUDIO TITLE "Nah Nah Nah (Remix) [feat. DaBaby & 2 Chainz] (feat DaBaby & …
 
Music behind DJ: Tony Farr - "Sleep Walk" Hank Snow - "The Boogie Woogie Flying Cloud" Jerry McKennon - "Please Walk Softly" Jimmie Skinner - "Four Walls A Floor And A Ceiling" Leon McAuliffe - "Juke Box" The Louvin Brothers - "Pitfall" Music behind DJ: Virgil Pate - "Wildwood Flower" Alvie Self - "Let's Go Wild" Frankie Mann and The Meteors - "Jus…
 
Tonka The Dj TRACK 01 AUDIO TITLE "Never Runnin Out Of Money" PERFORMER "Gucci Mane feat. E-40" INDEX 01 00:00:00 TRACK 02 AUDIO TITLE "Mista" PERFORMER "BIG30" INDEX 01 02:13:00 TRACK 03 AUDIO TITLE "MOVE" PERFORMER "Duke Deuce" INDEX 01 03:51:00 TRACK 04 AUDIO TITLE "Sky Dweller" PERFORMER "EST Gee" INDEX 01 04:53:00 TRACK 05 AUDIO TITLE "Who Wan…
 
Faron Young - "I've Got Five Dollars And It's Saturday Night" Music behind DJ: Jimmy Bryant, Speedy West - "Pushin' The Blues" Jimmy Work - "Just Like Downtown" Doc Williams & Chickie Williams - "Echo Of The North" Music behind DJ: Jørgen Ingmann & His Guitar - "Echo Boogie" Wilburn Brothers - "I'm Gonna Tie One On Tonight" Carolyn Bradshaw - "Baby…
 
PERFORMER "Tonka" TITLE "22:18" TRACK 01 AUDIO TITLE "Amsterdam" PERFORMER "Rico Love" INDEX 01 00:00:00 TRACK 02 AUDIO TITLE "I Care 4 U" PERFORMER "Aaliyah" INDEX 01 03:09:00 TRACK 03 AUDIO TITLE "Drunk Dialing...LODT" PERFORMER "Summer Walker" INDEX 01 05:34:00 TRACK 04 AUDIO TITLE "Sweat It Out" PERFORMER "The-Dream" INDEX 01 06:42:00 TRACK 05 …
 
Music behind DJ: Bell Sounds - "Marching Guitars" Neal Jones - "High Steppin' Baby" Country Johnny Mathis - "Since I Said Goodbye To Love" The Johnson Boys - "Strontium Ninety" Dottie Mae - "A Good Man Is Hard To Find" Larry Kingston - "If Your Lips Move" Betty Logan - "Hello Darling" Music behind DJ: Andy Doll - "Wait" Jim & Joyce James - "One Mor…
 
PERFORMER "Tonka" TITLE "21:37" FILE "7-14-2021 slow jamz xxx.mp3" MP3 TRACK 01 AUDIO TITLE "Tomorrow" PERFORMER "Jorja Smith" INDEX 01 00:00:00 TRACK 02 AUDIO TITLE "The Nasty Song" PERFORMER "Lil Ru" INDEX 01 02:10:00 TRACK 03 AUDIO TITLE "Tonight" PERFORMER "Trick Daddy feat. Jaheim and Trina" INDEX 01 03:49:00 TRACK 04 AUDIO TITLE "Ride Good" P…
 
PERFORMER "Tonka Toy" TITLE "20:34" FILE "7-12-2021.mp3" MP3 TRACK 01 AUDIO TITLE "Hood Blues (feat Westside Gunn & Benny The Butcher & Conway The Machine)" PERFORMER "DMX feat. Westside Gunn & Benny The Butcher & Conway The Machine" INDEX 01 00:00:00 TRACK 02 AUDIO TITLE "Paid the Fine" PERFORMER "Young Stoner Life feat. Lil Baby & YTB Trench" IND…
 
Music behind DJ: Elliott Shavers and His Blazers - "Scratch That Itch" Lenny Capello - "Cotton Candy" Conway Twitty - "She Loves Me (She Don't Love You)" Carl Perkins - "Hambone" Dick Curless - "Travelin' Man" Jim Coffey IIIrd - "Breakin' Rock" Music behind DJ: Cordell Jackson - "Beal Street" Ferlin Husky - "Draggin' The River" The Pell Brothers (T…
 
PERFORMER "Jay" TITLE "19:19" FILE "practice -3/30/21.mp3" MP3 TRACK 01 AUDIO TITLE "Cointelpro/Dec 4" PERFORMER "Chairman Fred Hampton, Jr." INDEX 01 00:00:00 TRACK 02 AUDIO TITLE "Unethical & Deceitful" PERFORMER "Mozzy" INDEX 01 02:27:00 TRACK 03 AUDIO TITLE "What It Feels Like" PERFORMER "Nipsey Hussle & JAY-Z" INDEX 01 04:21:00 TRACK 04 AUDIO …
 
Music behind DJ: Chet Atkins - "Whispering" - Chet Atkins' Workshop Webb Pierce and Kitty Wells - "One Week Later" Carl Perkins - "Lend Me Your Comb" Edwin Bruce - "Rock Boppin' Baby" Ray Price - "I Love You So Much I Let You Go" Joe Bennett and the Sparkletones - "Penny Loafers and Bobby Socks" Music behind DJ: Chet Atkins - "In A Little Spanish T…
 
Dolly Parton - "Why Why Why" - single Tony Douglas - "Thunder and Lightning" - single Music behind DJ: Joe Maphis - "Buckaroo" - The New Sound Of Joe Maphis Lee Denson - "New Shoes" - single Jackie Dee - "Buddy" - single Dale Davis & Tom Cats - "Gotta Rock" - single Paul Evans - "Hushaby Little Guitar" - single Fats and His Cats - "Well, Alright" -…
 
Music behind DJ: Jimmy Gordon - "Bzzzzzzzzzzzzzzzzzz" - single Johnny Sea - "It's A Shame" - single Kitty Wells - "This White Circle" - single Joe Martin - "Milk Cow Blues" - single Hank Killian - "Folsom Prison Blues" - single Connie Smith - "Tiny Blue Transistor Radio" - single Music behind DJ: The Star Knights - "Midnight Express" - single Crash…
 
Webb Pierce - "You'll Come Back" Music behind DJ: Carl Simmons' Orchestra - "Prowlin'" Loyd Weaver - "Steppin' Out and Sneakin' In" Ray Price - "Much Too Young To Die" Dolly Parton - "I'm Not Worth The Tearrs" Sleepy LaBeef - "Go Ahead On Baby" Dora Hall - "King Of The Road" Music behind DJ: Carl Simmons' Orchestra - "Boodoo" Johnny Sea - "Standing…
 
映画「エンゼル・ハート」失踪した歌手を追う探偵と謎の依頼人。上質なオカルトミステリーと名作揃いの「南部ゴシック」というジャンル 監督:アラン・パーカー 出演:ミッキー・ローク  ロバート・デ・ニーロ  シャーロット・ランプリング  リサ・ボネット他 -ストーリー- しがない私立探偵ハリー・エンゼルの元にルイ・サイファーと名乗る紳士から失踪した人気歌手を探してほしいという依頼が舞い込む。しかし調べが進むにつれて予想もしない凄惨な事件へと発展していく。 -訂正- 1960年代の映画を「80年近く前」と言っちゃってますが約60年前の言い間違いです。すいません! このブラウザでは再生できません。 再生できない場合、ダウンロードは🎵こちら…
 
Your guest host, and my cousin, Lee Connah returns with a new episode filled with captivating stories and music about my father, Atlanta artist and musician Whit Connah. Lee's exploration takes us back in time to revisit the antics of Whit and his longtime partner in crime, Albert Smith, followed by a a virtual trip to the Galax Fiddlers Convention…
 
Music behind DJ: John Buck And The Blazers - "Forbidden Love" Roy Cook - "Cry Of Love" Jimmie Skinner - "Baby I Could Change My Ways" Goldie Hill - "Sample My Kissin'" Smiley Maxedon - "I'll Swear You Don't Love Me" Hal Howard - "I Traded My Heart" [featuring Ken Woodfin, steel guitar] Hank Killian - "You Still Have The Devil To Pay" Music behind D…
 
Bob Dylan - "Sitting on a Barbed Wire Fence Version #1" Bob Dylan - "Dirt Road Blues" Bob Dylan - "Obviously Five Believers" Bob Dylan - "One More Night - Take 2" Bob Dylan - "One More Weekend" Bob Dylan - "Dear Landlord" Ronnie Hawkins & the Hawks - "Southern Love" Little Richard - "True Fine Mama" Webb Pierce - "In the Jailhouse Now" Curtis Gordo…
 
Roy Orbison - "Falling" Mel Tillis - "The Brooklyn Bridge" Tammy Wynette - "Stand By Your Man" Bill Keen & The Tradewinds - "Don't Call Me" Julie Faulk - "Home Wrecker" Music behind DJ: Freddy King - "In The Open" Bob Johnson - "A Day Late And A Dollar Short" T. L. and Hazel Parnell - "Have I Told You Lately (That I Love You)" Gene Moles - "Scotish…
 
Loading …

מדריך עזר מהיר

זכויות יוצרים 2021 | מפת אתר | מדיניות פרטיות | תנאי השירות
Google login Twitter login Classic login